Самые активные релизы за неделю
Книги / Аудио книги PDA / Phone / Android
Бентли Литтл | Сгинувшие (2017) [FB2]
  • Бентли Литтл | Сгинувшие (2017) [FB2]
  • Руслан Мельников | Черная кость [трилогия] (2017) [FB2]
  • Журнал | Chip [Россия] №4 (апрель 2017) [PDF]
  • Журнал | Maxim [Россия] №4 (апрель 2017) [PDF]
  • Максим Коломиец | Последние танки Гитлера. Панцерваффе 1945 (2012) [PDF]
  • Татьяна Полякова | Один неверный шаг (2016) [MP3]
  • Павел Корнев | Сиятельный. Прелюдия (2017) [MP3]
  • Павел Корнев | Лёд. Чистильщик (2017) [MP3]
  • Андрей Белянин | Демон с соседней улицы (2017) [MP3]
  • Антон Леонтьев | Город ведьм (2017) [FB2]

:: Детали раздачи

Призрак в доспехах: Антология / Koukaku Kidoutai: Antology (1995-2015) BDRip-AVC от R.G. HD-Films | 60 fps

Скачать Скачать .torrent файл (основная ссылка для скачивания файла)
Смотреть / Слушать онлайн просмотр (ссылка для просмотра файла через плагин 'Torrent Stream')
Magnet-ссылка (альтернативная ссылка для скачивания файла)
Теги / Метки аниме, мультфильм, фантастика, боевик, драма, 2015
Описание
Призрак в доспехах. Истоки (2015)

1. Призрак боли
2. Говорящая с призраками
3. Призрак Слез
4. Призрак Стоит Особняком
5. Культ воспламенения

Бонус (Логикомы)

MI Общее

Скриншоты

Призрак в доспехах (1995)

General
Unique ID : 172581975733899724436259010453801867841 (0x81D61459A2EAEE95A0E03EB1C9C91A41)
Format : Matroska
Format version : Version 4 / Version 2
File size : 3.74 GiB
Duration : 1h 22mn
Overall bit rate : 6 470 Kbps
Movie name : Tiberiumsun69
Encoded date : UTC 2016-02-07 13:09:34
Writing application : mkvmerge v8.3.0 ('Over the Horizon') 64bit
Writing library : libebml v1.3.1 + libmatroska v1.4.2
Attachment : Yes

Video
ID : 1
Format : AVC
Format/Info : Advanced Video Codec
Format profile : High@L4.1
Format settings, CABAC : Yes
Format settings, ReFrames : 4 frames
Codec ID : V_MPEG4/ISO/AVC
Duration : 1h 22mn
Bit rate : 4 400 Kbps
Width : 1 024 pixels
Height : 552 pixels
Display aspect ratio : 1.855
Frame rate : 59.940 fps
Color space : YUV
Chroma subsampling : 4:2:0
Bit depth : 8 bits
Scan type : Progressive
Bits/(Pixel*Frame) : 0.130
Stream size : 2.44 GiB (65%)
Title : Tiberiumsun69
Writing library : x264 core 146 r2538 121396c
Encoding settings : cabac=1 / ref=3 / deblock=1:0:0 / analyse=0x3:0x113 / me=umh / subme=9 / psy=1 / psy_rd=1.00:0.10 / mixed_ref=1 / me_range=32 / chroma_me=1 / trellis=2 / 8x8dct=1 / cqm=0 / deadzone=21,11 / fast_pskip=0 / chroma_qp_offset=-3 / threads=12 / lookahead_threads=3 / sliced_threads=0 / nr=0 / decimate=1 / interlaced=0 / bluray_compat=0 / constrained_intra=0 / bframes=16 / b_pyramid=2 / b_adapt=2 / b_bias=0 / direct=3 / weightb=1 / open_gop=0 / weightp=2 / keyint=250 / keyint_min=25 / scenecut=40 / intra_refresh=0 / rc_lookahead=40 / rc=2pass / mbtree=1 / bitrate=4400 / ratetol=1.0 / qcomp=0.60 / qpmin=0 / qpmax=69 / qpstep=4 / cplxblur=20.0 / qblur=0.5 / vbv_maxrate=14000 / vbv_bufsize=14000 / nal_hrd=none / filler=0 / ip_ratio=1.40 / aq=1:1.00
Language : English
Default : Yes
Forced : No

Audio #1
ID : 2
Format : AC-3
Format/Info : Audio Coding 3
Mode extension : CM (complete main)
Codec ID : A_AC3
Duration : 1h 22mn
Bit rate mode : Constant
Bit rate : 640 Kbps
Channel(s) : 2 channels
Channel positions : Front: L R
Sampling rate : 48.0 KHz
Bit depth : 16 bits
Compression mode : Lossy
Stream size : 378 MiB (10%)
Title : Дубляж ОРТ
Language : Russian
Default : Yes
Forced : No

Audio #2
ID : 3
Format : AC-3
Format/Info : Audio Coding 3
Mode extension : CM (complete main)
Codec ID : A_AC3
Duration : 1h 22mn
Bit rate mode : Constant
Bit rate : 640 Kbps
Channel(s) : 2 channels
Channel positions : Front: L R
Sampling rate : 48.0 KHz
Bit depth : 16 bits
Compression mode : Lossy
Stream size : 378 MiB (10%)
Title : MVO Гланс и Королева
Language : Russian
Default : No
Forced : No

Audio #3
ID : 4
Format : AC-3
Format/Info : Audio Coding 3
Mode extension : CM (complete main)
Codec ID : A_AC3
Duration : 1h 22mn
Bit rate mode : Constant
Bit rate : 192 Kbps
Channel(s) : 2 channels
Channel positions : Front: L R
Sampling rate : 48.0 KHz
Bit depth : 16 bits
Compression mode : Lossy
Stream size : 114 MiB (3%)
Title : DVO Tycoon-Studio
Language : Russian
Default : No
Forced : No

Audio #4
ID : 5
Format : AC-3
Format/Info : Audio Coding 3
Mode extension : CM (complete main)
Codec ID : A_AC3
Duration : 1h 22mn
Bit rate mode : Constant
Bit rate : 640 Kbps
Channel(s) : 2 channels
Channel positions : Front: L R
Sampling rate : 48.0 KHz
Bit depth : 16 bits
Compression mode : Lossy
Stream size : 378 MiB (10%)
Title : Оригинал
Language : Japanese
Default : No
Forced : No

Text
ID : 6
Format : ASS
Codec ID : S_TEXT/ASS
Codec ID/Info : Advanced Sub Station Alpha
Compression mode : Lossless
Title : Полные
Language : Russian
Default : No
Forced : No

Menu
00:00:00.000 : en:00:00:00.000
00:04:06.163 : en:00:04:06.163
00:08:24.754 : en:00:08:24.754
00:13:15.169 : en:00:13:15.169
00:24:17.706 : en:00:24:17.706
00:26:05.063 : en:00:26:05.063
00:27:40.158 : en:00:27:40.158
00:33:02.981 : en:00:33:02.981
00:36:21.513 : en:00:36:21.513
00:45:32.271 : en:00:45:32.271
00:53:59.486 : en:00:53:59.486
00:59:40.410 : en:00:59:40.410
01:06:24.355 : en:01:06:24.355
01:13:58.434 : en:01:13:58.434
01:17:31.480 : en:01:17:31.480


Скриншоты

Призрак в доспехах 2.0 (2008)

General
Unique ID : 201986024463662705233864693446308940030 (0x97F517E19B3B5988BADA8C39097E48FE)
Format : Matroska
Format version : Version 4 / Version 2
File size : 3.42 GiB
Duration : 1h 23mn
Overall bit rate : 5 876 Kbps
Movie name : Tiberiumsun69
Encoded date : UTC 2016-02-07 13:22:54
Writing application : mkvmerge v8.3.0 ('Over the Horizon') 64bit
Writing library : libebml v1.3.1 + libmatroska v1.4.2
Attachment : Yes

Video
ID : 1
Format : AVC
Format/Info : Advanced Video Codec
Format profile : High@L4.1
Format settings, CABAC : Yes
Format settings, ReFrames : 4 frames
Codec ID : V_MPEG4/ISO/AVC
Duration : 1h 23mn
Bit rate : 4 600 Kbps
Width : 1 024 pixels
Height : 576 pixels
Display aspect ratio : 16:9
Frame rate : 59.940 fps
Color space : YUV
Chroma subsampling : 4:2:0
Bit depth : 8 bits
Scan type : Progressive
Bits/(Pixel*Frame) : 0.130
Stream size : 2.61 GiB (76%)
Title : Tiberiumsun69
Writing library : x264 core 146 r2538 121396c
Encoding settings : cabac=1 / ref=3 / deblock=1:0:0 / analyse=0x3:0x113 / me=umh / subme=9 / psy=1 / psy_rd=1.00:0.10 / mixed_ref=1 / me_range=32 / chroma_me=1 / trellis=2 / 8x8dct=1 / cqm=0 / deadzone=21,11 / fast_pskip=0 / chroma_qp_offset=-3 / threads=12 / lookahead_threads=3 / sliced_threads=0 / nr=0 / decimate=1 / interlaced=0 / bluray_compat=0 / constrained_intra=0 / bframes=16 / b_pyramid=2 / b_adapt=2 / b_bias=0 / direct=3 / weightb=1 / open_gop=0 / weightp=2 / keyint=250 / keyint_min=25 / scenecut=40 / intra_refresh=0 / rc_lookahead=40 / rc=2pass / mbtree=1 / bitrate=4600 / ratetol=1.0 / qcomp=0.60 / qpmin=0 / qpmax=69 / qpstep=4 / cplxblur=20.0 / qblur=0.5 / vbv_maxrate=14000 / vbv_bufsize=14000 / nal_hrd=none / filler=0 / ip_ratio=1.40 / aq=1:1.00
Language : English
Default : Yes
Forced : No

Audio #1
ID : 2
Format : AC-3
Format/Info : Audio Coding 3
Mode extension : CM (complete main)
Codec ID : A_AC3
Duration : 1h 23mn
Bit rate mode : Constant
Bit rate : 640 Kbps
Channel(s) : 6 channels
Channel positions : Front: L C R, Side: L R, LFE
Sampling rate : 48.0 KHz
Bit depth : 16 bits
Compression mode : Lossy
Stream size : 382 MiB (11%)
Title : DVO Гланц и Королева
Language : Russian
Default : Yes
Forced : No

Audio #2
ID : 3
Format : AC-3
Format/Info : Audio Coding 3
Mode extension : CM (complete main)
Codec ID : A_AC3
Duration : 1h 23mn
Bit rate mode : Constant
Bit rate : 640 Kbps
Channel(s) : 6 channels
Channel positions : Front: L C R, Side: L R, LFE
Sampling rate : 48.0 KHz
Bit depth : 16 bits
Compression mode : Lossy
Stream size : 382 MiB (11%)
Title : Оригинал
Language : Japanese
Default : No
Forced : No

Text
ID : 4
Format : ASS
Codec ID : S_TEXT/ASS
Codec ID/Info : Advanced Sub Station Alpha
Compression mode : Lossless
Title : Полные
Language : Russian
Default : No
Forced : No


Скриншоты

Призрак в доспехах 2: Невинность (2004)

General
Unique ID : 248945561161350119582957235988261647200 (0xBB492BCBA7EACEB9BB05456896463360)
Format : Matroska
Format version : Version 4 / Version 2
File size : 3.92 GiB
Duration : 1h 39mn
Overall bit rate : 5 663 Kbps
Movie name : Tiberiumsun69
Encoded date : UTC 2016-02-07 13:39:47
Writing application : mkvmerge v8.3.0 ('Over the Horizon') 64bit
Writing library : libebml v1.3.1 + libmatroska v1.4.2
Attachment : Yes

Video
ID : 1
Format : AVC
Format/Info : Advanced Video Codec
Format profile : High@L4.1
Format settings, CABAC : Yes
Format settings, ReFrames : 4 frames
Codec ID : V_MPEG4/ISO/AVC
Duration : 1h 39mn
Bit rate : 4 400 Kbps
Width : 1 024 pixels
Height : 552 pixels
Display aspect ratio : 1.855
Frame rate : 59.940 fps
Color space : YUV
Chroma subsampling : 4:2:0
Bit depth : 8 bits
Scan type : Progressive
Bits/(Pixel*Frame) : 0.130
Stream size : 2.96 GiB (75%)
Title : Tiberiumsun69
Writing library : x264 core 146 r2538 121396c
Encoding settings : cabac=1 / ref=3 / deblock=1:0:0 / analyse=0x3:0x113 / me=umh / subme=9 / psy=1 / psy_rd=1.00:0.10 / mixed_ref=1 / me_range=32 / chroma_me=1 / trellis=2 / 8x8dct=1 / cqm=0 / deadzone=21,11 / fast_pskip=0 / chroma_qp_offset=-3 / threads=12 / lookahead_threads=3 / sliced_threads=0 / nr=0 / decimate=1 / interlaced=0 / bluray_compat=0 / constrained_intra=0 / bframes=16 / b_pyramid=2 / b_adapt=2 / b_bias=0 / direct=3 / weightb=1 / open_gop=0 / weightp=2 / keyint=250 / keyint_min=25 / scenecut=40 / intra_refresh=0 / rc_lookahead=40 / rc=2pass / mbtree=1 / bitrate=4400 / ratetol=1.0 / qcomp=0.60 / qpmin=0 / qpmax=69 / qpstep=4 / cplxblur=20.0 / qblur=0.5 / vbv_maxrate=14000 / vbv_bufsize=14000 / nal_hrd=none / filler=0 / ip_ratio=1.40 / aq=1:1.00
Language : English
Default : Yes
Forced : No

Audio #1
ID : 2
Format : AC-3
Format/Info : Audio Coding 3
Mode extension : CM (complete main)
Codec ID : A_AC3
Duration : 1h 39mn
Bit rate mode : Constant
Bit rate : 640 Kbps
Channel(s) : 6 channels
Channel positions : Front: L C R, Side: L R, LFE
Sampling rate : 48.0 KHz
Bit depth : 16 bits
Compression mode : Lossy
Stream size : 454 MiB (11%)
Title : MVO Гланс и Королева
Language : Russian
Default : Yes
Forced : No

Audio #2
ID : 3
Format : AC-3
Format/Info : Audio Coding 3
Mode extension : CM (complete main)
Codec ID : A_AC3
Duration : 1h 39mn
Bit rate mode : Constant
Bit rate : 640 Kbps
Channel(s) : 6 channels
Channel positions : Front: L C R, Side: L R, LFE
Sampling rate : 48.0 KHz
Bit depth : 16 bits
Compression mode : Lossy
Stream size : 454 MiB (11%)
Title : Оригинал
Language : Japanese
Default : No
Forced : No

Text
ID : 4
Format : UTF-8
Codec ID : S_TEXT/UTF8
Codec ID/Info : UTF-8 Plain Text
Title : Полные
Language : Russian
Default : No
Forced : No


Скриншоты

Призрак в доспехах: Синдром одиночки (сериал) (2002-2004)

Сезон 1
01. БЮРО ОБЩЕСТВЕННОЙ БЕЗОПАСНОСТИ, 9-Й ОТДЕЛ
02. ИСПЫТАНИЕ
03. АНДРОИД И Я
04. ПЕРЕХВАТЧИК
05. ПРИМАНКА
06. ПОДРАЖАТЕЛИ
07. ИДОЛОПОКЛОННИЧЕСТВО
08. ПРОПАВШИЕ СЕРДЦА
09. ЧАТ! ЧАТ! ЧАТ!
10. ВОЙНА В ДЖУНГЛЯХ
11. ПОРТРЕТЫ
12. ПОБЕГ
13. НЕРАВЕНСТВО
14. ПРИЗРАК КАПИТАЛИЗМА
15. СВОЕВОЛЬНЫЕ МАШИНЫ
16. МЁРТВАЯ ЗОНА
17. ИСТИНА В ВИНЕ
18. ПРОПАВШЕЕ НАСЛЕДСТВО
19. ПЛЕН
20. ПОВТОР
21. ПРИЗРАЧНЫЕ СЛЕДЫ
22. СКАНДАЛ
23. ЗА ГРАНЬЮ ДОБРА И ЗЛА
24. ОДИНОЧКА
25. ПОД ГРАДОМ ПУЛЬ
26. ДЕВЯТЫЙ ОТДЕЛ ВОСКРЕШЕНИЕ
Сезон 2
01. ПЕРЕЗАГРУЗКА
02. МЕЧТАТЕЛЬ
03. ВЕЧЕР СУББОТЫ, УТРО ВОСКРЕСЕНЬЯ
04. ЕСТЕСТВЕННЫЙ ВРАГ
05. МОТИВАЦИЯ
06. ИСТОЧНИК ТЕПЛА
07. РАПСОДИЯ - МУЗЫКА ПОБЕЖДЁННЫХ
08. ВЕГЕТАРИАНСКИЙ УЖИН
09. БЕЗНАДЁЖНАЯ НАДЕЖДА
10. ПРАВЕДНАЯ ЗЛОСТЬ
11. СТЕКЛЯННЫЙ ЛАБИРИНТ
12. БЕЗЫМЯННЫЕ
13. ЛИЦО
14. БЕРЕГИСЬ ЛЕВОГО ГЛАЗА
15. ДЕНЬ МАШИН
16. ПОБЫВАТЬ ТАМ
17. КАК МАТЬ И ДИТЯ
18. ПОЭМА АНГЕЛА
19. ОТНОСИТЕЛЬНАЯ РЕАКЦИЯ
20. БЕСПОРЯДКИ НА СЕВЕРНОЙ ГРАНИЦЕ
21. ЗАМЕШАТЕЛЬСТВО
22. ПОКИНУТЫЙ ГОРОД
23. ДЕНЬ, КОГДА РУХНУЛ МОСТ
24. ДЭДЗИМА ПОД УДАРАМИ С ВОЗДУХА
25. ПО ОДНУ СТОРОНУ РАЯ
26. ВОЗВРАТ К ПАТРИОТИЗМУ
MI общее

Скриншоты

Дни Татиком (минисериал) (2002-2004)

General
Unique ID : 254370036982230148565318867322793401016 (0xBF5DE31A28917001987F6B6EBBC89AB8)
Format : Matroska
Format version : Version 4 / Version 2
File size : 36.1 MiB
Duration : 58s 238ms
Overall bit rate : 5 201 Kbps
Movie name : Tiberiumsun69
Encoded date : UTC 2016-02-14 07:49:51
Writing application : mkvmerge v8.3.0 ('Over the Horizon') 64bit
Writing library : libebml v1.3.1 + libmatroska v1.4.2
Attachment : Yes

Video
ID : 1
Format : AVC
Format/Info : Advanced Video Codec
Format profile : High@L4.1
Format settings, CABAC : Yes
Format settings, ReFrames : 4 frames
Codec ID : V_MPEG4/ISO/AVC
Duration : 58s 233ms
Bit rate : 4 073 Kbps
Width : 1 024 pixels
Height : 552 pixels
Display aspect ratio : 1.855
Frame rate : 59.880 fps
Color space : YUV
Chroma subsampling : 4:2:0
Bit depth : 8 bits
Scan type : Progressive
Bits/(Pixel*Frame) : 0.120
Stream size : 28.3 MiB (78%)
Title : Tiberiumsun69
Language : English
Default : Yes
Forced : No

Audio #1
ID : 2
Format : AC-3
Format/Info : Audio Coding 3
Mode extension : CM (complete main)
Codec ID : A_AC3
Duration : 58s 238ms
Bit rate mode : Constant
Bit rate : 384 Kbps
Channel(s) : 6 channels
Channel positions : Front: L C R, Side: L R, LFE
Sampling rate : 48.0 KHz
Bit depth : 16 bits
Compression mode : Lossy
Delay relative to video : 30ms
Stream size : 2.67 MiB (7%)
Title : MVO MC-Ent
Language : Russian
Default : Yes
Forced : No

Audio #2
ID : 3
Format : AC-3
Format/Info : Audio Coding 3
Mode extension : CM (complete main)
Codec ID : A_AC3
Duration : 58s 238ms
Bit rate mode : Constant
Bit rate : 640 Kbps
Channel(s) : 6 channels
Channel positions : Front: L C R, Side: L R, LFE
Sampling rate : 48.0 KHz
Bit depth : 16 bits
Compression mode : Lossy
Delay relative to video : 9ms
Stream size : 4.44 MiB (12%)
Title : Оригинал
Language : Japanese
Default : No
Forced : No

Text
ID : 4
Format : UTF-8
Codec ID : S_TEXT/UTF8
Codec ID/Info : UTF-8 Plain Text
Title : Полные
Language : Russian
Default : No
Forced : No


Скриншоты

Призрак в доспехах: Синдром одиночки. Сообщество крепкого государства (2006)

General
Unique ID : 202868043833240150428017984000034000387 (0x989EF6CB2DE60E608E56B67D329ACE03)
Format : Matroska
Format version : Version 4 / Version 2
File size : 3.96 GiB
Duration : 1h 48mn
Overall bit rate : 5 221 Kbps
Movie name : Tiberiumsun69
Encoded date : UTC 2016-02-14 13:40:04
Writing application : mkvmerge v8.3.0 ('Over the Horizon') 64bit
Writing library : libebml v1.3.1 + libmatroska v1.4.2
Attachment : Yes

Video
ID : 1
Format : AVC
Format/Info : Advanced Video Codec
Format profile : High@L4.1
Format settings, CABAC : Yes
Format settings, ReFrames : 4 frames
Codec ID : V_MPEG4/ISO/AVC
Duration : 1h 48mn
Bit rate : 4 400 Kbps
Width : 1 024 pixels
Height : 576 pixels
Display aspect ratio : 16:9
Frame rate : 59.940 fps
Color space : YUV
Chroma subsampling : 4:2:0
Bit depth : 8 bits
Scan type : Progressive
Bits/(Pixel*Frame) : 0.124
Stream size : 3.25 GiB (82%)
Title : Tiberiumsun69
Writing library : x264 core 146 r2538 121396c
Encoding settings : cabac=1 / ref=3 / deblock=1:0:0 / analyse=0x3:0x113 / me=umh / subme=9 / psy=1 / psy_rd=1.00:0.10 / mixed_ref=1 / me_range=32 / chroma_me=1 / trellis=2 / 8x8dct=1 / cqm=0 / deadzone=21,11 / fast_pskip=0 / chroma_qp_offset=-3 / threads=12 / lookahead_threads=3 / sliced_threads=0 / nr=0 / decimate=1 / interlaced=0 / bluray_compat=0 / constrained_intra=0 / bframes=16 / b_pyramid=2 / b_adapt=2 / b_bias=0 / direct=3 / weightb=1 / open_gop=0 / weightp=2 / keyint=250 / keyint_min=25 / scenecut=40 / intra_refresh=0 / rc_lookahead=40 / rc=2pass / mbtree=1 / bitrate=4400 / ratetol=1.0 / qcomp=0.60 / qpmin=0 / qpmax=69 / qpstep=4 / cplxblur=20.0 / qblur=0.5 / vbv_maxrate=14000 / vbv_bufsize=14000 / nal_hrd=none / filler=0 / ip_ratio=1.40 / aq=1:1.00
Language : English
Default : Yes
Forced : No

Audio #1
ID : 2
Format : AC-3
Format/Info : Audio Coding 3
Mode extension : CM (complete main)
Codec ID : A_AC3
Duration : 1h 48mn
Bit rate mode : Constant
Bit rate : 384 Kbps
Channel(s) : 6 channels
Channel positions : Front: L C R, Side: L R, LFE
Sampling rate : 48.0 KHz
Bit depth : 16 bits
Compression mode : Lossy
Stream size : 298 MiB (7%)
Title : DVO Гланц и Королева
Language : Russian
Default : Yes
Forced : No

Audio #2
ID : 3
Format : AC-3
Format/Info : Audio Coding 3
Mode extension : CM (complete main)
Codec ID : A_AC3
Duration : 1h 48mn
Bit rate mode : Constant
Bit rate : 448 Kbps
Channel(s) : 6 channels
Channel positions : Front: L C R, Side: L R, LFE
Sampling rate : 48.0 KHz
Bit depth : 16 bits
Compression mode : Lossy
Stream size : 348 MiB (9%)
Title : Оригинал
Language : Japanese
Default : No
Forced : No

Text
ID : 4
Format : UTF-8
Codec ID : S_TEXT/UTF8
Codec ID/Info : UTF-8 Plain Text
Title : Полные
Language : Russian
Default : No
Forced : No


Скриншоты

Просьба к переливающим на другие сайты, в оформлении указывайте пожалуйста авторство группы http://i66.fastpic.ru/big/2015/1213/40/462a354edcb3ea76b0fadabde6be2740.jpg


Добавлена 5 часть в сборнике "Истоки" 21.02.2016
Оповестить о раздаче Включить оповещение на почту ( о новом торрент-файле ), когда появится раздача с похожим названием: Призрак в доспехах: Антология, Koukaku Kidoutai: Antology

E-Mail адрес:
Внимание: Если вы не авторизованы, то для вас будет создана временная учетная запись (доступ к аккаунту будет прикреплен в письме).
Похожие файлы
Загрузка / Обновление
Категория Аниме RSS лента
Добавлен (2 месяца назад)
Просмотров 50 раз (a)
Взят 1 раз (a)
Файлы 117, 76.36 GB (81 992 834 588 байт)
Оценка
IMDB: 7.6, 72 голоса (ов), Кинопоиск: 6.762, 102 голоса (ов)
Раздал ViKa  (Искать торренты)
Участники
Раздают (отдают): 0 (39), Скачивают (качают): 0 (20), Завершено: 0 (31)
Просматривают
Раздача в социалкахVK #3630 (2 месяца назад)

« Хозяева денег / The Money Masters (1996) DVDRip -†- ¿? -†- Побег / Побег из тюрьмы / Prison Break [S04] (2008) НDRip от Scarabey | C. P. И. »

:: Список Комментариев
Нет комментариев.

 Нет комментариев
Файлы для обмена предоставлены пользователями сайта, Администрация не несет ответственности за их содержание. Просьба не заливать файлы, защищенные авторскими правами, а также файлы нелегального содержания! Чтобы ознакомится со списком запрещенных файлов пройдите сюда, если вы правообладатель и нашли файлы, просьба написать в Техподдержку сайта с пометкой Авторский файл. 
Счетчики


Поделитесь в социальных сетях


Быстрый Поиск





Правообладателям
По всем вопросам сотрудничества, удаления авторских файлов "пачкой", просьба отписаться по адреcу:
abuse@mytoot.ru

Случайная персона
.:Мы тут! © Tesla v. Pearl (V):.
Страничка сформирована за 0.184 секунд.